Viernes, 24-11-2017, 23.51
Le saludo Visitante | RSS
Inicio | Catálogo de artículos | Registrarse | Entrada
Menú del sitio
Categorías de la sección
rmvb [24]
avi [71]
on-line [5]
Mini-chat
Formulario de entrada

Inicio » Artículos » Peliculas » avi

Predators 2010 [TS-HQ ] [Español Latino 2010]

La película narra cómo llegan secuestrados al planeta natal de los depredadores un grupo de humanos conocidos por su violencia y su crueldad. Entre ellos destaca Cuchillo, un asesino a sueldo de traficantes de un cartel mexicano, que porta un par de Uzis gemelas en su espalda.

Junto a Cuchillo nos encontramos con personajes, entre otros, llamados Kenzo, un yakuza japonés espadachín, Mombasa, un africano miembro del Escuadrón de la Muerte de Sierra Leona, y un enorme ruso llamado Nikola, compadre del tamaño de un oso que pertenece a la mafia rusa. Entre todos destaca un tal Royce.

Este variopinto y aparentemente estereotipado grupo de humanos deberán sobrevivir a la caza a la que serán sometidos en una selva del planeta alienígena por parte de los depredadores, liderados por un ‘SuperDepredador Negro’, definido como una especie de "Depredador con esteroides” (¡!), y contarán con la ayuda de ‘Depredadores Halcón’ o ‘Perros Depredadores’, entre otra fauna local.

Título original: Predators
País: USA
Duracion: 1h 41mn
Estreno en USA: 09/07/2010
Estreno en España: 13/08/2010
Productora: 20th Century Fox
Director: Nimrod Antal
Guión: Alex Litvak & Michael Finch
Reparto: Topher Grace, Adrien Brody, Danny Trejo, Laurence Fishburne, Alice Braga, Derek Mears, Brian Steele, Walton Goggins, Carey Jones, Mahershalalhashbaz Ali, Oleg Taktarov, Louis Ozawa Changchien
Acción, Aventuras, Ciencia-Ficción | 106 min. |

Código:
Video Codec.......:XViD Release Date......:07/09/10
Audio Codec.......:Layer 3 Theatre Date......:07/10/10
Audio Bitrate.....:128 Runtime...........:1h 41mn
Subtitles.........:NIL Language..........:Español Latino
Resolution........:720 x 304
Peso......... 1400MB

Video
Format: MPEG-4 Visual
Format profile: Streaming Video@L1
Format settings, BVOP: Yes
Format settings, QPel: No
Format settings, GMC: No warppoints
Format settings, Matrix: Default
Muxing mode: Packed bitstream
Codec ID: XVID
Codec ID/Hint: XviD
Duration: 1h 41mn
Bit rate: 1 797 Kbps
Width: 720 pixels
Height: 304 pixels
Display aspect ratio: 2.35
Frame rate: 25.000 fps
Resolution: 24 bits
Colorimetry: 4:2:0
Scan type: Progressive
Bits/(Pixel*Frame): 0.328
Stream size: 1.27 GiB (93%)
Writing library: XviD 50

Audio
Format: MPEG Audio
Format version: Version 1
Format profile: Layer 3
Codec ID: 55
Codec ID/Hint: MP3
Duration: 1h 41mn
Bit rate mode: Constant
Bit rate: 128 Kbps
Channel(s): 2 channels
Sampling rate: 44.1 KHz
Resolution: 16 bits
Stream size: 92.6 MiB (7%)
Alignment: Split accross interleaves
Interleave, duration: 40 ms (1.00 video frame)
Interleave, preload duration: 500 ms NOTES:

DESCARGA

HOTFILE

http://hotfile.com/dl/64444113/8131819/Pr3DaToR2010.part1.rar.html
http://hotfile.com/dl/64444116/5533b8b/Pr3DaToR2010.part2.rar.html
http://hotfile.com/dl/64444117/bdb266c/Pr3DaToR2010.part3.rar.html
http://hotfile.com/dl/64444114/77b3951/Pr3DaToR2010.part4.rar.html
http://hotfile.com/dl/64444115/6885a4e/Pr3DaToR2010.part5.rar.html
http://hotfile.com/dl/64444112/f936d53/Pr3DaToR2010.part6.rar.html

FILESERVE

http://www.fileserve.com/file/MC8Sfa5
http://www.fileserve.com/file/PBWCpsF
http://www.fileserve.com/file/ZAwVtrG
http://www.fileserve.com/file/yNQy2Rb
http://www.fileserve.com/file/tSZbsDX
http://www.fileserve.com/file/TnxqkYJ



Categoría: avi | Ha añadido: LoBoAzuL (24-08-2010)
Visiones: 324 | Ranking: 0.0/0
Total de comentarios: 0
Nombre *:
Email:
Código *:
Copyright MyCorp © 2017